22 de Octubre de 2014, 14:13:pm (España)
Hola, Visitante

Refresh Activity Stream (It's automatically updated) Open Activity Stream in Popup En vivo las recientes actividades en ForoGames en vivo, esto es Stream


El Lobo De Wall Street (2013) [DVDRip/Latino] [Comedia] [1 Link] [PL]

/El Lobo De Wall Street (2013) [DVDRip/Latino] [Comedia] [1 Link] [PL] => Sinopsis: Película basada en hechos reales del corredor de bolsa neoyorquino  Jordan Belfort (Leonardo DiCaprio). A mediados de los años

Autor: tomas01 Post: El Lobo De Wall Street (2013) [DVDRip/Latino] [Comedia] [1 Link] [PL]  (Visto 44 veces)

0 Usuarios y 1 Visitante están viendo este Post.

  • Leyenda Gamer
  • *
    • Ver Perfil
El Lobo De Wall Street (2013) [DVDRip/Latino] [Comedia] [1 Link] [PL]
« en: 16 de Marzo de 2014, 14:48:pm (España) »

Sinopsis:
Película basada en hechos reales del corredor de bolsa neoyorquino  Jordan Belfort (Leonardo DiCaprio). A mediados de los años ochenta,  Belfort era un joven honrado que perseguía el sueño americano, pero  pronto en la agencia de valores aprendió que lo más importante no era  hacer ganar a sus clientes, sino ser ambicioso y ganar una buena  comisión. Su enorme éxito y fortuna cuando tenía poco más de veinte años  como fundador de una agencia bursátil le valió el mote de "El lobo de  Wall Street". Dinero. Poder. Mujeres. Drogas. Las tentaciones abundaban y  el temor a la ley era irrelevante. Jordan y su manada de lobos  consideraban que la discreción era una cualidad anticuada; nunca se  conformaban con lo que tenían.

Ficha Técnica:
Título original: The Wolf of Wall Street
Otros Títulos: El lobo de Wall Street
Año: 2013
Duración: 179 min.
País: Estados Unidos
Director: Martin Scorsese
Guión: Terence Winter (Libro: Jordan Belfort)
Música: Howard Shore
Fotografía: Rodrigo Prieto
Reparto: Leonardo DiCaprio, Jonah Hill, Margot Robbie, Matthew  McConaughey, Rob Reiner, Jean Dujardin, Jon Bernthal, Kyle Chandler, Jon  Favreau, Ethan Suplee, Katarina Cas, Cristin Milioti, Joanna Lumley,  Spike Jonze, Chris Kerson, Shea Whigham, Marcos Antonio Gonzalez, Emily  Tremaine, Ashley Blankenship, Madison McKinley
Productora: Paramount Pictures / Red Granite Pictures / Appian Way
Género: Comedia. Drama | Comedia negra. Biográfico. Bolsa & Negocios. Años 80. Drogas

Trailer:




Datos Técnicos:
DVDRip | AVI | 1 GB | 640x272 | Español Latino

Capturas:


Mediainfo:
Código: [Seleccionar]
General
Complete name                            : El Lobo De Wall Street.DVDRip.Latino(peliculastomas01).avi
Format                                   : AVI
Format/Info                              : Audio Video Interleave
File size                                : 1 023 MiB
Duration                                 : 2h 59mn
Overall bit rate                         : 795 Kbps
Recorded date                            : 13-03-2014
Writing application                      : VirtualDubMod 1.5.10.2 (build 2540/release) VirtualDubMod build 2540/release
Comment                                  : By Johual

Video
ID                                       : 0
Format                                   : MPEG-4 Visual
Format profile                           : Advanced Simple@L5
Format settings, BVOP                    : 2
Format settings, QPel                    : No
Format settings, GMC                     : No warppoints
Format settings, Matrix                  : Default (H.263)
Codec ID                                 : XVID
Codec ID/Hint                            : XviD
Duration                                 : 2h 59mn
Bit rate                                 : 674 Kbps
Width                                    : 640 pixels
Height                                   : 272 pixels
Display aspect ratio                     : 2.35:1
Frame rate                               : 23.976 fps
Color space                              : YUV
Chroma subsampling                       : 4:2:0
Bit depth                                : 8 bits
Scan type                                : Progressive
Compression mode                         : Lossy
Bits/(Pixel*Frame)                       : 0.161
Stream size                              : 867 MiB (85%)
Writing library                          : XviD 1.2.1 (UTC 2008-12-04)

Audio
ID                                       : 1
Format                                   : MPEG Audio
Format version                           : Version 1
Format profile                           : Layer 3
Mode                                     : Joint stereo
Mode extension                           : MS Stereo
Codec ID                                 : 55
Codec ID/Hint                            : MP3
Duration                                 : 2h 59mn
Bit rate mode                            : Constant
Bit rate                                 : 112 Kbps
Channel(s)                               : 2 channels
Sampling rate                            : 44.1 KHz
Compression mode                         : Lossy
Stream size                              : 144 MiB (14%)
Alignment                                : Split accross interleaves
Interleave, duration                     : 42 ms (1.00 video frame)
Interleave, preload duration             : 500 ms
Writing library                          : LAME3.98.2
Language                                 : Undefined



Contraseña / Password:
Código: [Seleccionar]
peliculastomas01

Descargar / Download:


FreakShare | uploadable | FireDriver(PutLocker)





Notas:
----------------------------------------------------------------------------------------------------
-Si tienes problemas con el sonido reportamelo por MP, Ya le tengo solucion.
-Si algun enlace o link se cae, no lo avises comentando, hazlo por MP o por el reporte de links, asi me doy cuenta rapido.
-Verifica si he resubido los links aveces no lo comento en el foro, solo lo digo por el contenedor de links.
-Por favor, les pido que comenten sobre la calidad o sonido de la peli, asi los demas user sabran lo que descargan.
----------------------------------------------------------------------------------------------------


Tags:
 


El Lobo De Wall Street (2013) [DVDRip/Latino] [Comedia] [1 Link] [PL] Posts Relacionados

El lobo de Wall Street (2013) Comedia [DVDScreener] [Castellano]
Un corredor de bolsa de Nueva York se niega a cooperar en un caso  importante de fraude de valores, en el que están implicados W... Continuar..

Visitas: 126 - Comentarios: 0 - Creado por:spook90
El lobo de Wall Street (2013) Comedia [BRScreener] [Castellano]
Un corredor de bolsa de Nueva York se niega a cooperar en un caso  importante de fraude de valores, en el que están implicados W... Continuar..

Visitas: 30 - Comentarios: 0 - Creado por:spook90
El Lobo De Wall Street [DVDRip] [Audio Latino] [2013]
Ficha Técnica: Título original: The Wolf of Wall Street Otros Títulos: El lobo Continuar..

Visitas: 51 - Comentarios: 0 - Creado por:WESKER12
El Lobo De Wall Street (2013) [720pHD/Español Latino] [Comedia] [1 Link] [PL]
Sinopsis:Película basada en hechos reales del corredor de bolsa neoyorquino  Jordan Belfort (Leonardo DiCaprio). A mediados de ... Continuar..

Visitas: 32 - Comentarios: 0 - Creado por:tomas01
El lobo de Wall Street (2013) Comedia [Dvdrip] [Castellano AC3 5.1]
Un corredor de bolsa de Nueva York se niega a cooperar en un caso  importante de fraude de valores, en el que están implicados W... Continuar..

Visitas: 20 - Comentarios: 0 - Creado por:spook90