02 de Septiembre de 2014, 18:40:pm (España)
Hola, Visitante

Refresh Activity Stream (It's automatically updated) Open Activity Stream in Popup En vivo las recientes actividades en ForoGames en vivo, esto es Stream


Iron Sky [DVDRip][Castellano][Ciencia-Ficción][2012]

ForoGames.net! - Comunidad Gamers Fanáticos!/Iron Sky [DVDRip][Castellano][Ciencia-Ficción][2012] => TÍTULO ORIGINAL: Iron sky. AÑO: 2012 GENERO: Acción, comedia, ciencia-ficción. REPARTO: Julia Dietze (Renate Richter), Christopher Kirby (James

Autor: wii_fanatico Post: Iron Sky [DVDRip][Castellano][Ciencia-Ficción][2012]  (Visto 101 veces)

0 Usuarios y 1 Visitante están viendo este Post.

  • Leyenda Gamer
  • *
    • Ver Perfil
Iron Sky [DVDRip][Castellano][Ciencia-Ficción][2012]
« en: 15 de Abril de 2013, 03:02:am (España) »




TÍTULO ORIGINAL: Iron sky.
AÑO: 2012
GENERO: Acción, comedia, ciencia-ficción.
REPARTO: Julia Dietze (Renate Richter), Christopher Kirby (James Washington), Götz Otto (Klaus Adler), Udo Kier (Wolfgang), Peta Sergeant (Vivian), Stephanie Paul (presidente).
SINOPSIS: En los últimos momentos de la Segunda Guerra Mundial, un programa secreto formado por un grupo de nazis logró escapar de la destrucción huyendo al Lado Oscuro de la Luna. Durante 70 años de sumo secretismo, los nazis construyeron una gigantesca fortaleza espacial y una armada masiva de platillos voladores. Muy pronto, esta imparable flota pondrá rumbo a la Tierra, provocando el regreso triunfante del Cuarto Reich.




Código: [Seleccionar]
Iron.Sky.DVDrip.fanatico.avi
Format                                   : AVI
Format/Info                              : Audio Video Interleave
File size                                : 1.13 GiB
Duration                                 : 1h 32mn
Overall bit rate                         : 1 744 Kbps
Writing application                      : VirtualDubMod 1.5.10.2 (build 2540/release)
Writing library                          : VirtualDubMod build 2540/release

Video
ID                                       : 0
Format                                   : MPEG-4 Visual
Format profile                           : Advanced Simple@L5
Format settings, BVOP                    : 2
Format settings, QPel                    : No
Format settings, GMC                     : No warppoints
Format settings, Matrix                  : Default (H.263)
Muxing mode                              : Packed bitstream
Codec ID                                 : XVID
Codec ID/Hint                            : XviD
Duration                                 : 1h 32mn
Bit rate                                 : 1 287 Kbps
Width                                    : 720 pixels
Height                                   : 306 pixels
Display aspect ratio                     : 2.35:1
Frame rate                               : 24.000 fps
Color space                              : YUV
Chroma subsampling                       : 4:2:0
Bit depth                                : 8 bits
Scan type                                : Progressive
Compression mode                         : Lossy
Bits/(Pixel*Frame)                       : 0.243
Stream size                              : 852 MiB (74%)
Writing library                          : XviD 1.2.1 (UTC 2008-12-04)

Audio
ID                                       : 1
Format                                   : AC-3
Format/Info                              : Audio Coding 3
Mode extension                           : CM (complete main)
Codec ID                                 : 2000
Duration                                 : 1h 32mn
Bit rate mode                            : Constant
Bit rate                                 : 448 Kbps
Channel(s)                               : 6 channels
Channel positions                        : Front: L C R, Side: L R, LFE
Sampling rate                            : 48.0 KHz
Bit depth                                : 16 bits
Compression mode                         : Lossy
Stream size                              : 297 MiB (26%)
Alignment                                : Split accross interleaves
Interleave, duration                     : 42 ms (1.00 video frame)
Interleave, preload duration             : 500 ms







Código: [Seleccionar]
http://filezy.net/oo2cq8mp27kh/Iron.Sky.DVDrip.fanatico.avi.part1.rar.html
http://filezy.net/d4tveppr9pbj/Iron.Sky.DVDrip.fanatico.avi.part2.rar.html
http://filezy.net/2ee4apoddvig/Iron.Sky.DVDrip.fanatico.avi.part3.rar.html

AMIGOS PARA DESCARGAR UTILICEN EL PROGRAMA JDOWNLOADER.

ACÁ LES DEJO EL PROGRAMA JDOWNLOADER AMIGOS CLICK AQUÍ

TUTORIAL RECONEXIÓN JDOWNLOADER IP DINÁMICA, PODRAN DESCARGAR SIN ESPERAS CLICK ACÁ 

Tags:
 


Iron Sky [DVDRip][Castellano][Ciencia-Ficción][2012] Posts Relacionados

Iron Sky (2012) [BRScreener HQ][Castellano][Ciencia Ficción]
A finales de la Segunda Guerra Mundial un grupo de científicos nazis lanzaron un cohete en dirección a la cara oculta de la Luna... Continuar..

Visitas: 232 - Comentarios: 0 - Creado por:Manzaneroski
Iron Sky (2012) [DVDRip] [Castellano]
DVDRip  | AVI | 919 MB | Español Castellano | 2012 | Ciencia FiccionFICHA TECNICA:TÍTULO ORIGINAL: Iron sky.AÑO: 2012GENERO: Acc... Continuar..

Visitas: 66 - Comentarios: 0 - Creado por:monyi100
Iron Man 3 (2013)[HDTV][Castellano Mic Scr HQ COMPLETO][Ciencia Ficción]
TÍTULO ORIGINAL Iron Man 3 AÑO 2013 DURACIÓN 130 min. PAÍS Estados Unidos DIRECTOR Shane Blac Continuar..

Visitas: 106 - Comentarios: 0 - Creado por:wii_fanatico
Iron Sky |Dvdrip| Español Latino | Ciencia Ficción° 2012
 Esta pelicula se trata sobre que en el final de la Segunda Guerra Mundial, un grupo de nazis consiguió escapar en Continuar..

Visitas: 34 - Comentarios: 0 - Creado por:damber
Iron Man 3 [2013][DVDRip][Castellano AC3 5.1][Acción Ciencia-Ficción]
   El descarado y brillante empresario Tony Stark/Iron Man se enfrentará a un enemigo cuyo poder no conoce límites. Cuando Stark... Continuar..

Visitas: 208 - Comentarios: 0 - Creado por:blanco_jujo